أحلى منوعات النت مرحباً بكم
هل تريد التفاعل مع هذه المساهمة؟ كل ما عليك هو إنشاء حساب جديد ببضع خطوات أو تسجيل الدخول للمتابعة.

أحلى منوعات النت مرحباً بكم

أقوى وأحدث الأفلام والأغاني والكليبات الأجنبية والعربية وبرامج وألعاب كاملة ونادرة ومصارعة المحترفين وشات وموبايل واعلانات مجانية
 
الرئيسيةالبوابةأحدث الصورالتسجيلدخول

 

 Cowboys And Aliens 2011

اذهب الى الأسفل 
كاتب الموضوعرسالة
ميدو البرنس
Admin
ميدو البرنس


عدد المساهمات : 2528
تاريخ التسجيل : 06/07/2009
العمر : 32
الموقع : https://oldcoins.yoo7.com/

Cowboys And Aliens 2011 Empty
مُساهمةموضوع: Cowboys And Aliens 2011   Cowboys And Aliens 2011 Emptyالسبت أكتوبر 08, 2011 2:09 pm

Cowboys And Aliens 2011 96839422754166283103

Language : English
Format : AVI
Format/Info : Audio Video Interleave
Format profile : OpenDML
File size : 1.82 GiB
Duration : 1h 58mn
Overall bit rate : 2 211 Kbps

Video
ID : 0
Format : MPEG-4 Visual
Format profile : Simple@L3
Format settings, BVOP : No
Format settings, QPel : No
Format settings, GMC : No warppoints
Format settings, Matrix : Default (H.263)
Codec ID : XVID
Codec ID/Hint : XviD
Duration : 1h 58mn
Bit rate : 2 066 Kbps
Width : 640 pixels
Height : 480 pixels
Display aspect ratio : 4:3
Frame rate : 29.970 fps
Original frame rate : 29.000 fps
Resolution : 24 bits
Colorimetry : 4:2:0
Scan type : Progressive
Bits/(Pixel*Frame) : 0.224
Stream size : 1.70 GiB (93%)
Writing library : XviD 1.2.1 (UTC 2008-12-04)

Audio
ID : 1
Format : MPEG Audio
Format version : Version 1
Format profile : Layer 3
Format_Settings_Mode : Joint stereo / MS Stereo
Codec ID : 55
Codec ID/Hint : MP3
Duration : 1h 58mn
Bit rate mode : Constant
Bit rate : 128 Kbps
Channel(s) : 2 channels
Sampling rate : 44.1 KHz
Resolution : 16 bits
Stream size : 108 MiB (6%)
Alignment : Aligned on interleaves
Interleave, duration : 26 ms (0.78 video frame)
Writing library : LAME3.98.2

Release notes...

Another quality release from IFLIX
More to come very soon!

Video source: Ours
Audio source: Ours
Cowboys And Aliens 2011 23797376

Download
http://nafhat.info/short/218
الرجوع الى أعلى الصفحة اذهب الى الأسفل
https://oldcoins.ahlamontada.com/
 
Cowboys And Aliens 2011
الرجوع الى أعلى الصفحة 
صفحة 1 من اصل 1
 مواضيع مماثلة
-
» اللعبة الممتعة جدا والمثيرة Aliens Land
»  حصرياً نسخة أوفيس 2011 الرائعة Microsoft Office (2011) MacOSX
» ويندوز اكس بي خام كامل 2011 Windows XP Professional SP3 Integrated June 2011 Corporate

صلاحيات هذا المنتدى:لاتستطيع الرد على المواضيع في هذا المنتدى
أحلى منوعات النت مرحباً بكم :: '¸.•' أفلام أجنبي'¸.•' :: لتحميل الأفلام الأجنبية الحصرية بدون ترجمة-
انتقل الى: